动画资源

[动画分享] 3月のライオン 第2シリーズ (3月的狮子 第二季) [22集全+1SP+CD+特典][BDRip 1920×1080 x264 Hi8P]

微信扫一扫,分享到朋友圈

[动画分享] 3月のライオン 第2シリーズ (3月的狮子 第二季) [22集全+1SP+CD+特典][BDRip 1920×1080 x264 Hi8P]
0 0

[动画分享] 3月のライオン 第2シリーズ (3月的狮子 第二季) [22集全+1SP+CD+特典][BDRip 1920×1080 x264 Hi8P]

 

简介:
这是有关各式各样的人们取回什么的温馨故事,同时也是有关斗争的故事。
主人公桐山零,幼时因为意外事故失去了家人,是一个背负着沉重的孤独的17岁将棋棋士。
独自居住在东京旧市镇桐山零遇见了明里、日向、桃三姐妹,少年桐山零因此发生了改变。

话数: 22
别名: 三月的狮子 第二季 三月的狮子 2期
放送开始: 2017年10月14日
放送星期: 星期六
原作: 羽海野チカ(白泉社 ヤングアニマル連載)
导演: 新房昭之
脚本: 木澤行人
分镜: 川畑喬、大石美絵、岡田堅二朗、黒沢守、吉澤翠、大谷肇、佐伯昭志
演出: 角地拓大、佐伯昭志、三上喜子、吉澤翠、川崎ゆたか、長友孝和、岡田堅二朗、橋本能理子、大谷肇、宮西哲也
音乐: 橋本由香利
人物设定: 杉山延寛
系列构成: 新房昭之、東冨耶子
美术监督: 田村せいき
总作画监督: 杉山延寛、潮月一也、梅下麻奈未
作画监督: 浅井昭人、金正男、北原章雄、斉藤和也、清水勝祐、岩崎たいすけ、高岡希一、松浦力、片山みゆき、野道佳代、林隆祥、西澤真也、山崎敦子、劉雲留
原画: 玉川真吾、守岡英行、砂田茂樹、杉田柊、片山学、北原章雄、松本元気、山口賢一、高橋しんや、中澤勇一、潮月一也、阿部厳一朗、名倉靖博、浜崎博嗣、大梶博之、藤井俊郎
背景美术: アニメ工房婆娑羅
主题歌演出: Brian the Sun、YUKI
系列监督: 岡田堅二朗
音响监督: 亀山俊樹
动画制作: SHAFT
美术设计: 名倉靖博
OP・ED 分镜: 中村亮介、名倉靖博、高津幸央
官方网站: http://3lion-anime.com/
播放电视台: NHK総合
播放结束: 2018年3月31日
Copyright: © 羽海野チカ・白泉社/「3月のライオン」アニメ製作委員会
製作: 「3月のライオン」アニメ製作委員会

提示:已包含简中字幕
文件为分卷压缩形式上传,解压时需所有压缩包一起解压。解压后总大小51.1GB。

媒体信息:
General
Unique ID                      : 198669279652957178784786448557503511954 (0x95764FBC9611E065B3A649D0C29D7D92)
Complete name                  : H:资源二次元动漫3月のライオン (3月的狮子)  系列3月のライオン 第2シリーズ (3月的狮子 第二季) [BDRip 1920×1080 x264 Hi8P][Sangatsu no Lion][23][BDRIP][1080P][H264_FLACx2].mkv
Format                         : Matroska
Format version                 : Version 4 / Version 2
File size                      : 1.75 GiB
Duration                       : 25 min 2 s
Overall bit rate mode          : Variable
Overall bit rate               : 10.0 Mb/s
Encoded date                   : UTC 2018-02-03 23:45:00
Writing application            : mkvmerge v7.7.0 (‘Six Voices’) 32bit built on Feb 28 2015 23:23:00
Writing library                : libebml v1.3.1 + libmatroska v1.4.2

Video
ID                             : 1
Format                         : AVC
Format/Info                    : Advanced Video Codec
Format profile                 : High@L4.1
Format settings                : CABAC / 4 Ref Frames
Format settings, CABAC         : Yes
Format settings, ReFrames      : 4 frames
Codec ID                       : V_MPEG4/ISO/AVC
Duration                       : 25 min 2 s
Bit rate                       : 7 200 kb/s
Width                          : 1 920 pixels
Height                         : 1 080 pixels
Display aspect ratio           : 16:9
Frame rate mode                : Constant
Frame rate                     : 23.976 (24000/1001) FPS
Color space                    : YUV
Chroma subsampling             : 4:2:0
Bit depth                      : 8 bits
Scan type                      : Progressive
Bits/(Pixel*Frame)             : 0.145
Stream size                    : 1.26 GiB (72%)
Writing library                : x264 core 125 r2200 999b753
Encoding settings              : cabac=1 / ref=4 / deblock=1:-1:-1 / analyse=0x3:0x113 / me=umh / subme=9 / psy=1 / psy_rd=1.00:0.00 / mixed_ref=1 / me_range=24 / chroma_me=1 / trellis=2 / 8x8dct=1 / cqm=0 / deadzone=21,11 / fast_pskip=1 / chroma_qp_offset=-2 / threads=18 / lookahead_threads=3 / sliced_threads=0 / nr=0 / decimate=1 / interlaced=0 / bluray_compat=0 / constrained_intra=0 / bframes=3 / b_pyramid=0 / b_adapt=2 / b_bias=0 / direct=3 / weightb=1 / open_gop=0 / weightp=2 / keyint=240 / keyint_min=23 / scenecut=40 / intra_refresh=0 / rc_lookahead=50 / rc=2pass / mbtree=1 / bitrate=7200 / ratetol=1.0 / qcomp=0.60 / qpmin=10 / qpmax=51 / qpstep=4 / cplxblur=20.0 / qblur=0.5 / vbv_maxrate=50000 / vbv_bufsize=50000 / nal_hrd=none / ip_ratio=1.40 / aq=1:1.00
Default                        : Yes
Forced                         : No
Audio #1
ID                             : 2
Format                         : FLAC
Format/Info                    : Free Lossless Audio Codec
Codec ID                       : A_FLAC
Duration                       : 25 min 2 s
Bit rate mode                  : Variable
Bit rate                       : 1 391 kb/s
Channel(s)                     : 2 channels
Channel positions              : Front: L R
Sampling rate                  : 48.0 kHz
Frame rate                     : 11.719 FPS (4096 SPF)
Bit depth                      : 24 bits
Stream size                    : 249 MiB (14%)
Title                          : FLAC 2.0
Writing library                : libFLAC 1.2.1 (UTC 2007-09-17)
Language                       : Japanese
Default                        : Yes
Forced                         : No
Audio #2
ID                             : 3
Format                         : FLAC
Format/Info                    : Free Lossless Audio Codec
Codec ID                       : A_FLAC
Duration                       : 25 min 2 s
Bit rate mode                  : Variable
Bit rate                       : 1 414 kb/s
Channel(s)                     : 2 channels
Channel positions              : Front: L R
Sampling rate                  : 48.0 kHz
Frame rate                     : 11.719 FPS (4096 SPF)
Bit depth                      : 24 bits
Stream size                    : 253 MiB (14%)
Title                          : Commentary
Writing library                : libFLAC 1.2.1 (UTC 2007-09-17)
Language                       : Japanese
Default                        : No
Forced                         : No
Menu
00:00:00.000                   : en:Avant
00:01:05.399                   : en:Opening
00:02:35.030                   : en:46-1
00:06:21.840                   : en:46-2
00:08:18.748                   : en:46-3
00:10:18.284                   : en:46-4
00:12:08.978                   : en:47-1
00:14:18.357                   : en:47-2
00:16:00.543                   : en:47-3
00:18:56.594                   : en:47-4
00:22:23.008                   : en:Ending
00:23:53.015                   : en:47-5
00:24:31.011                   : en:Yokoku
资源下载此资源为免费资源,请先
包月VIP只需要20元!下载全站资源。【开通教程点击这里了解】【新用户注册请查看教程】
有问题联系QQ;2577949003 【在线时间早9:00--晚12:00】其他时间不能及时回复消息,请留言,看到会及时回复。【游戏怎么玩,游戏秘籍不要问我,我不知道!再问咬人!】

蕾丝兔宝宝合集 [2012-201][图片+视频4V][3.21G]

上一篇

[动画分享] 佐贺偶像是传奇/ZOMBIE LAND SAGA [BDRIP][1080P][12集全+NC]

下一篇

你也可能喜欢

发表评论

您的电子邮件地址不会被公开。 必填项已用 * 标注

提示:点击验证后方可评论!

插入图片

热门标签

[动画分享] 3月のライオン 第2シリーズ (3月的狮子 第二季) [22集全+1SP+CD+特典][BDRip 1920×1080 x264 Hi8P]

长按储存图像,分享给朋友